Login
Username:
Password:
Remember Me:
[Signup]
[Recover Account]
Friends
BTScene
Friendly site

Free Courses Online
Friendly site

Anime RG
Friendly site

KaranPC
Friendly site

P2PDL.com
Friendly site

Free Tutorials & Courses
Friendly site
Torrent Details For "Kalakattam (2016) 720p Hindi Dubbed HDRip x264 AC3 by Full4movies"

Kalakattam (2016) 720p Hindi Dubbed HDRip x264 AC3 by Full4movies

To download this torrent, you need a BitTorrent client: Vuze or BTGuard
Download this torrent
Download using Magnet Link





Health:
Seeds: 186
Leechers: 84
Completed: 324 
Last Checked: 12-08-2018 14:20:11

Uploader Reputation points : 1594
External: Torrent




Write a Review for the Uploader:   0   Say Thanks with one good review:


Details
Name:Kalakattam (2016) 720p Hindi Dubbed HDRip x264 AC3 by Full4movies
Description:


General
Complete name                  : Kalakattam (2016) 720p Hindi Dubbed HDRip x264 AC3 by Full4movies.mkv
Format                         : Matroska
Format version                 : Version 4 / Version 2
File size                      : 1.05 GiB
Duration                       : 2 h 6 min
Overall bit rate               : 1 194 kb/s
Movie name                     : www.Full4moveis.co
Encoded date                   : UTC 2018-08-10 07:37:22
Writing application            : mkvmerge v8.1.0 ('Psychedelic Postcard') 32bit
Writing library                : libebml v1.3.1 + libmatroska v1.4.2
Cover                          : Yes
Attachments                    : Covers.jpg

Video
ID                             : 1
Format                         : AVC
Format/Info                    : Advanced Video Codec
Format profile                 : [email protected]
Format settings, CABAC         : Yes
Format settings, RefFrames     : 3 frames
Codec ID                       : V_MPEG4/ISO/AVC
Duration                       : 2 h 6 min
Bit rate                       : 1 000 kb/s
Width                          : 1 280 pixels
Height                         : 544 pixels
Display aspect ratio           : 2.35:1
Frame rate mode                : Constant
Frame rate                     : 24.000 FPS
Color space                    : YUV
Chroma subsampling             : 4:2:0
Bit depth                      : 8 bits
Scan type                      : Progressive
Bits/(Pixel*Frame)             : 0.060
Stream size                    : 903 MiB (84%)
Writing library                : x264 core 79
Language                       : Tamil
Default                        : Yes
Forced                         : No
Color range                    : Limited
Color primaries                : BT.709
Transfer characteristics       : BT.709
Matrix coefficients            : BT.709

Audio
ID                             : 2
Format                         : AC-3
Format/Info                    : Audio Coding 3
Mode                           : Dolby Digital
Format settings, Endianness    : Big
Codec ID                       : A_AC3
Duration                       : 2 h 6 min
Bit rate mode                  : Constant
Bit rate                       : 192 kb/s
Channel(s)                     : 2 channels
Channel positions              : Front: L R
Sampling rate                  : 48.0 kHz
Frame rate                     : 31.250 FPS (1536 SPF)
Bit depth                      : 16 bits
Compression mode               : Lossy
Stream size                    : 173 MiB (16%)
Title                          : -=!Dr.STAR!=-
Language                       : Hindi
Service kind                   : Complete Main
Default                        : Yes
Forced                         : No

Screen Shoots
YouTube Video:
Category:Movies
Language:Hindi  Hindi
Total Size:1.05 GB
Info Hash:BE3D060374E45D2DF37E13C2CEB72C2E3C419691
Added By:india4movie Verified Uploader
Date Added:11-08-2018 08:09:59
Torrent Status:Torrent Verified


Ratings:Not Yet Rated (Log in to rate it)


Tracker:
udp://tracker.coppersurfer.tk:6969/announce

This Torrent also has backup trackers
URLSeedersLeechersCompleted
udp://tracker.coppersurfer.tk:6969/announce12643
udp://tracker.opentrackr.org:1337/announce14521
udp://9.rarbg.me:2710/announce18838
udp://tracker.torrent.eu.org:451/announce20835
udp://open.stealth.si:80/announce14619
udp://public.popcorn-tracker.org:6969/announce11612
udp://p4p.arenabg.ch:1337/announce000
udp://tracker.zer0day.to:1337/announce000
udp://tracker.pirateparty.gr:6969/announce12643
udp://tracker.leechers-paradise.org:6969/announce850
udp://tracker.tiny-vps.com:6969/announce20935
udp://bt.firebit.co.uk:6969/announce850
udp://inferno.demonoid.pw:3397/announce23740
udp://shadowshq.yi.org:6969/announce850
udp://9.rarbg.to:2780/announce18838


File List: 



Warning! Do not Download Torrents Without a VPN!
Your IP Address is .   Location is
Your Internet Provider and Government can track your torrent Activity! Hide your IP ADDRESS with a VPN!
We strongly recommend using SpyOFF VPN to anonymize your Torrenting.It's FREE!
START YOUR FREE TRIAL NOW!


Comments
No comments still posted